#TITLE:Rewrite;
#SUBTITLE:- Fullmetal Alchemist -;
#ARTIST:Asian Kung-Fu Generation;
#TITLETRANSLIT:;
#SUBTITLETRANSLIT:;
#ARTISTTRANSLIT:Asian Kung-Fu Generation;
#CREDIT:;
#BANNER:Banner.jpg;
#BACKGROUND:Background1.jpg;
#LYRICSPATH:lyrics.lrc;
#CDTITLE:qed.png;
#MUSIC:rewrite.mp3;
#OFFSET:-0.110;
#SAMPLESTART:58.950;
#SAMPLELENGTH:11.860;
#SELECTABLE:YES;
#BPMS:0.000=179.000;
#STOPS:;
#BGCHANGES:-0.200=rewritevid.avi=1.000=1=1=0,
284.500=Background2.jpg=1.000=1=0=1,
99999=-nosongbg-=1.000=0=0=0 // don't automatically add -songbackground-
;
// cache tags:
#FIRSTBEAT:0.000;
#LASTBEAT:286.250;
#SONGFILENAME:Songs/nhac/Rewrite/rewrite.sm;
#HASMUSIC:1;
#HASBANNER:1;
#MUSICLENGTH:98.716;
// end cache tags

//---------------dance-single - ----------------
#NOTES:
     dance-single:
     :
     Challenge:
     11:
     1.000,1.000,1.000,0.881,0.648,673.000,187.000,87.000,0.000,0.000:
1001
0001
1001
0100
0011
0010
0011
0100
,
0110
0000
0110
0000
0001
0000
1000
0000
0020
0030
0200
0300
0020
0030
2000
3000
,
0200
0300
0020
0030
1001
0000
0010
0000
0101
0000
0001
0000
0101
0000
1000
0000
,
0110
0000
0110
0000
0001
0000
1000
0000
0001
0000
0100
0000
0010
0100
0010
0000
,
1000
0010
1000
0000
0101
0000
0010
0000
0110
0000
0100
0000
1001
0000
0001
0000
,
0110
0100
1010
1000
0011
0100
1010
0100
,
0011
0010
0101
0010
1010
0100
0110
0010
,
0101
0000
0001
0000
1001
0110
1001
0000
0110
1001
0110
0000
1100
0011
1100
0000
,
0011
1100
0011
0000
1001
0000
0010
0100
0001
0000
0010
1000
0100
0010
0001
0010
,
0100
0000
0001
0000
0011
0000
0100
0010
0001
0000
0100
0010
0001
0100
0010
0001
,
0100
0000
0010
0000
1001
0000
0100
1000
0100
0000
0010
0100
0010
0001
0010
0100
,
1000
0000
1000
0000
0011
0000
0001
0100
0001
0000
0010
1000
0100
0010
0001
0010
,
0001
0000
0100
0000
0101
0000
0010
0100
0001
0000
0001
0100
0010
0001
0010
0100
,
1000
0000
0100
0000
1010
0000
1000
0001
0100
0000
0010
0100
0010
0100
1000
0100
,
0010
0000
0001
0000
0110
0000
1000
0001
1000
0000
0100
0010
0100
0001
0010
0100
,
1000
0000
0010
0000
0011
0000
1000
0010
1000
0000
0001
0100
0001
0000
0010
0100
,
0010
0000
1000
0000
0110
0000
0100
0000
0010
0000
0001
1000
0100
0010
0001
0010
,
0100
0000
0010
0000
1001
0000
0010
0000
1000
0000
0100
0010
0001
0010
0100
1000
,
0010
0000
1000
0000
0110
0000
0001
0000
0010
0000
0100
0010
0001
1000
0100
0010
,
0100
0000
0100
0000
0101
0000
0010
0000
0100
0000
0001
0100
0010
0001
0010
0100
,
1000
0000
0100
0000
1001
0000
0001
0000
0100
0000
0001
0010
0001
0010
0100
1000
,
0100
0000
0100
0000
1010
0000
0100
0000
0001
0000
0010
0001
0010
0100
1000
0010
,
1000
0000
0100
0000
0011
0000
1000
0000
0010
0000
0100
1000
0100
0010
0001
0100
,
0001
0000
0010
0000
1100
0000
0011
0000
1100
0000
0100
0000
1000
0001
0100
0010
,
1000
0001
0100
0010
1001
0000
1001
0000
0110
0000
0000
0000
1100
0000
0100
0000
,
0011
0000
0101
0010
0101
0000
0110
0010
,
1001
0000
1010
0100
0101
0000
1010
0001
,
0011
0000
0000
0000
0100
0010
0100
0000
0001
1000
0001
0000
0100
0010
0001
0000
,
0101
0000
0100
0000
1100
0000
0010
0100
0001
0000
0001
0010
0100
1000
0100
0010
,
0001
0000
0100
0000
0011
0000
0010
0001
0010
0000
0100
1000
0100
0010
0001
0010
,
0100
0000
1000
0000
0011
0000
1000
0010
0100
0000
0001
0010
0001
0010
0100
1000
,
0100
0000
0010
0000
1001
0000
0100
0001
0100
0000
0001
0010
0100
1000
0010
0100
,
1000
0000
0001
0000
0101
0000
0010
0001
0100
0000
1000
0010
0100
0010
0001
0010
,
0100
0000
1000
0000
0110
0000
0001
0100
0001
0000
0010
0001
0010
0100
1000
0100
,
0010
0000
1000
0000
1100
0000
0100
1000
0100
0000
0010
0001
0010
0001
0010
0100
,
1000
0010
0101
0101
0110
0001
0011
1100
,
0110
0000
1000
0000
0010
0000
1000
0000
0010
0000
0001
0100
0001
0100
0010
1000
,
0010
0000
0100
0000
0011
0000
0100
0000
1000
0000
0010
0001
0100
1000
0100
1000
,
0100
0000
0010
0000
0101
0000
1000
0000
0001
0000
1000
0001
0010
0100
0001
0100
,
1000
0000
0100
0000
1001
0000
0001
0000
1000
0000
0100
1000
0100
0010
0100
0001
,
0010
0000
1000
0000
0101
0000
0010
0000
0100
0000
0001
0100
0001
0100
0010
0100
,
0010
0000
0100
0000
1010
0000
0010
0000
0001
0000
0010
0001
0010
0100
0010
1000
,
0100
0000
1000
0000
0110
0000
0010
0000
0100
0000
0010
0001
0010
1000
0100
0010
,
0100
0010
1001
1001
1001
1001
2002
3003
,
0110
0000
0000
0000
2001
0000
0100
0010
0001
0000
0100
0010
0001
0000
0100
0010
,
0001
0000
3010
0000
0101
0000
0010
0000
0110
0000
1010
0000
2020
3030
0100
0000
,
0202
0303
0010
0000
1002
0000
0010
0100
1000
0000
0010
0100
1000
0000
0010
0100
,
1000
0013
1001
0100
0110
0001
0110
0110
,
1001
0000
1001
0000
0202
0303
0010
0000
0220
0330
0100
0000
2002
3003
0100
0000
,
2020
3030
0100
0000
0110
0000
0110
0000
0110
0000
1000
0000
0010
0001
0010
0000
,
0100
1000
0100
0000
0022
0033
0100
0000
2020
3030
0100
0000
0022
0033
0010
0000
,
0220
0330
0010
0000
2002
0000
3003
0000
1100
0000
1100
0000
1100
0000
0010
0000
,
0101
0000
0010
0000
0200
0000
1000
0010
0001
0000
1000
0010
0001
0000
1000
0010
,
0001
0000
0310
0000
0011
0000
0010
0000
0101
0000
0110
0000
0220
0330
1000
0000
,
0202
0303
0010
0000
0020
0000
0001
0100
1000
0000
0001
0100
1000
0000
0001
0100
,
1000
0130
0011
0010
0101
0100
1010
1010
,
0101
0000
0101
0000
0022
0033
0100
0000
0220
0330
0100
0000
2002
3003
0010
0000
,
0220
0330
1000
0000
0011
0000
0011
0000
0101
0000
0110
0000
2020
3030
0100
0000
,
0022
0033
0010
0000
2002
3003
0100
0000
2002
3003
0010
0000
0220
0330
1000
0000
,
0220
0330
0001
0000
0011
0000
1100
0000
0011
0000
1100
0000
0110
0000
1001
0000
,
0110
1001
2100
3010
0001
0100
0010
1000
,
0100
0010
1001
0010
0100
0010
0001
1010
,
0101
2020
3030
0100
0001
1000
0001
0100
,
0010
0001
1000
0010
0001
0100
0010
1100
,
0011
2200
3300
0001
0100
0010
0100
1000
,
0001
0000
0100
0000
0010
0000
0100
0000
0022
0033
0100
0000
0022
0000
0033
0000
,
2002
0000
3003
0000
2200
0000
0000
3300
0000
0000
0022
0000
0000
0000
0033
0000
,
2020
0000
3030
0000
0110
0100
0110
0010
,
1001
0000
1000
0000
1001
0000
2002
3003
0000
0000
0110
0000
0220
0330
0000
0000
,
0011
0000
0022
0033
0000
0000
0101
0000
0010
0000
1001
0000
0110
0000
1000
0000
,
0110
0000
0001
0000
1010
0000
2020
3030
0000
0000
0110
0000
0220
0330
0000
0000
,
1001
0000
2002
0000
0000
0000
0000
0000
0000
3003
0000
0000
0000
0000
0000
0000
;

//---------------dance-single - Copied from----------------
#NOTES:
     dance-single:
     Copied from:
     Hard:
     9:
     1.000,1.000,1.000,1.000,0.015,405.000,172.000,168.000,0.000,0.000:
1001
0000
2002
3003
0010
0001
0010
0000
,
0011
0022
0033
1000
0001
1000
0010
0100
,
0010
1000
2200
3300
0100
0001
0100
0000
,
1010
0000
0202
0000
0303
0000
0010
0000
0001
0000
0100
0000
0001
1000
0001
0000
,
0110
0000
0110
0000
2000
3000
0010
0000
1000
0000
0022
0000
0033
0000
1000
0000
,
0001
0000
0220
0000
0330
0000
1100
0000
0002
0003
0000
0000
0220
0330
0000
0000
,
0100
0000
1000
0000
2020
3030
0100
0000
0010
0000
0202
0000
0303
0000
0010
0000
,
1000
2002
3003
0100
0022
0033
0110
0110
,
1001
1001
1010
0100
0010
0002
0003
0000
,
1010
0000
1001
0100
0010
2200
3300
0000
,
0110
0000
1001
0100
0010
2002
3003
0000
,
0011
0000
0101
0010
0001
2020
3030
0000
,
1010
0000
0101
0000
0010
1000
0010
0000
,
0010
0001
1010
0000
0100
0010
1000
0100
,
0001
0010
1100
0000
0010
0001
0100
0000
,
0100
1000
0101
0101
0101
0000
0110
1001
,
0110
0000
0101
0100
0010
2020
3030
0000
,
0110
0000
0110
0001
1000
0202
0303
0000
,
1001
0000
1010
0001
1000
0220
0330
0000
,
1100
0000
1010
0001
0010
0022
0033
0000
,
0110
0000
1001
0100
0010
0000
0001
0010
,
1000
0010
0001
0100
0101
0000
0010
1000
,
0001
0100
1000
0100
0110
0000
0110
1000
,
0001
0100
0011
0011
1100
0000
1100
0011
,
1100
0000
0011
0000
2200
3300
0000
0000
2002
3003
0000
0000
0202
0303
0000
0000
,
0022
0033
0000
0000
0202
0303
0000
0000
0220
0330
0000
0000
2020
3030
0000
0000
,
0220
0330
0000
0000
2020
3030
0000
0000
0220
0330
0000
0000
0022
0033
0000
0000
,
2020
3030
0000
0000
0202
0303
0000
0000
0220
0330
0000
0000
0001
1000
0001
0000
,
0100
0010
0100
0000
0010
0000
0100
0000
0010
0000
2200
0000
3300
0000
0000
0000
,
0110
0000
0011
0100
1000
0202
0303
0000
,
1010
0000
1010
0001
1000
0202
0303
0000
,
1010
0000
0011
1000
0100
0022
0033
0000
,
0110
0000
1001
0000
1001
0010
0001
0010
,
0100
0000
0010
0100
0001
0010
0002
0003
,
1100
0000
0011
0100
1000
0000
1100
0010
,
0001
0000
1001
1000
0001
0100
0001
0010
,
0001
1000
0011
0001
0010
0202
0303
0000
,
1010
0000
1100
0001
0100
0022
0033
0000
,
0101
0000
0110
0001
0010
0022
0033
0000
,
0101
0000
1001
0100
0001
0220
0330
0000
,
1100
0000
0001
1000
0110
0000
0100
0001
,
1100
0000
0100
0001
0010
1000
0100
0001
,
1010
0000
2002
3003
0220
0330
0001
1000
,
0001
0100
1001
1001
1001
1001
2002
3003
,
1010
0000
0012
0000
0100
1000
0100
0000
,
0010
0100
0010
0003
0100
1000
0022
0033
,
0202
0303
2001
0000
0100
0001
0100
0000
,
0010
0001
0010
3000
0100
0001
1010
0000
,
1001
0000
0000
0000
2002
3003
0000
0000
0220
0330
0000
0000
2002
3003
0000
0000
,
2020
3030
0000
0000
1000
0000
0001
0000
0110
0000
0000
0000
1010
0000
0100
0000
,
0001
0000
0000
0000
0022
0033
0000
0000
2020
3030
0000
0000
0022
0033
0000
0000
,
0220
0330
0000
0000
2002
0000
3003
0000
1100
0000
1100
0000
0100
0000
0010
0000
,
0001
0010
2000
0000
0001
0100
0001
0000
,
0010
0001
0010
0000
3001
1000
0022
0033
,
0220
0330
0002
0000
0010
1000
0010
0000
,
0100
0010
0100
0000
0013
0100
1010
0000
,
1010
0000
0000
0000
0022
0033
0000
0000
0220
0330
0000
0000
0022
0033
0000
0000
,
2020
3030
0000
0000
0100
0000
0001
0000
0010
0000
0100
0000
1000
0000
0001
0000
,
1000
0000
0100
0000
0022
0033
0000
0000
2200
3300
0000
0000
0022
0033
0000
0000
,
2200
3300
0000
0000
0202
0303
0000
0000
0220
0330
0000
0000
0202
0303
0000
0000
,
2020
3030
0000
0000
2002
0000
3003
0000
0100
0000
0010
0000
0001
0000
0000
0000
,
1000
0010
0001
0010
0100
0000
1000
0010
,
0001
0020
0030
0000
1000
0010
1000
0000
,
0100
0010
0001
1000
0100
0001
0100
0010
,
0001
2000
3000
0000
0010
0100
1000
0000
,
0001
0100
1000
0001
1010
0000
0110
0000
,
0220
0000
0330
0000
0202
0000
0303
0000
0000
0000
0022
0000
0000
0033
0000
0000
,
2002
0000
3003
0000
0010
1000
0001
0010
,
0100
0000
1000
0000
0011
0000
0022
0033
0000
0000
1001
0000
2002
3003
0000
0000
,
0110
0220
0330
0000
0100
0010
1000
0001
,
0010
0000
0100
0000
0011
0000
0022
0033
0000
0000
1100
0000
2200
3300
0000
0000
,
1001
2002
0000
3003
0000
0000
0000
0000
;

//---------------dance-single - Copied from Copied f----------------
#NOTES:
     dance-single:
     Copied from Copied f:
     Medium:
     6:
     0.708,0.831,0.648,1.000,0.000,260.000,64.000,165.000,0.000,0.000:
1000
0000
0002
0003
0010
0001
0010
0000
,
0001
0002
0000
0000
0000
0000
0000
0000
,
0003
0000
0200
0300
0100
0001
0100
0000
,
0010
0020
0000
0000
0000
0000
0000
0000
,
0030
0000
0000
0000
2000
3000
0000
0000
1000
0000
0002
0000
0003
0000
0000
0000
,
0001
0000
0020
0000
0030
0000
0100
0000
0002
0003
0000
0000
0220
0000
0000
0000
,
0000
0000
0330
0000
2000
3000
0000
0000
0010
0000
0002
0000
0003
0000
0000
0000
,
1000
0002
0003
0100
0020
0030
0100
0010
,
0001
1000
0020
0000
0030
0002
0003
0000
,
2020
3030
2002
3003
0000
2200
3300
0000
,
0100
0010
0002
0003
0000
2002
3003
0000
,
1000
0202
0000
0303
0000
0000
1010
0000
,
1000
0000
0202
0303
0000
2000
0000
3000
,
0100
0000
0022
0033
0000
0200
0000
0300
,
1000
0010
0001
0000
0010
0001
0000
0100
,
2002
0000
3003
0110
,
0110
0000
0202
0303
0000
2000
3000
0000
,
0100
0000
0220
0330
0000
0202
0303
0000
,
1000
0100
0001
0000
1000
0020
0000
0030
,
1000
0022
0000
0000
0033
0000
1100
0000
,
0100
0000
2002
3003
0000
0020
0000
0030
,
1100
0000
0022
0033
0000
0200
0000
0300
,
1000
0202
0303
0000
0100
1000
0000
0001
,
2002
0000
0000
0000
3003
0000
1000
0001
,
1000
0000
1010
0000
0010
0002
0003
0000
,
0001
0220
0330
1000
0010
0000
0220
0330
,
0000
0000
1010
0000
0010
0002
0003
0000
,
0100
0000
0022
0000
0033
0000
1000
0000
0020
0030
0000
0000
0001
0000
0010
0000
,
0100
1000
0002
0003
0000
2200
0000
3300
,
0100
0000
0022
0033
0000
0202
0000
0303
,
1000
0000
0002
0003
0010
0002
0000
0003
,
1000
0002
0000
0003
0000
0000
0110
0000
,
0010
0000
2002
3003
0000
0200
0000
0300
,
1000
0000
0022
0033
0000
0020
0000
0030
,
1000
0010
0001
0000
0010
0001
0000
1000
,
0200
0300
1000
0000
0001
0000
0110
0000
,
1001
0000
0022
0033
0000
0200
0000
0300
,
1000
0000
2200
3300
0000
0020
0000
0030
,
0100
0001
0020
0030
0100
0020
0000
0030
,
1000
0200
0000
0000
0300
0000
0110
0000
,
1000
0000
0002
0003
0000
0220
0000
0330
,
1000
0000
0200
0300
0000
2002
0000
3003
,
1000
0010
0002
0003
0100
0010
0000
1000
,
0002
0003
1000
0001
1000
0001
2000
3000
,
1100
0022
0000
0000
,
0000
0000
0000
0033
0000
1000
0020
0030
,
0202
0303
2002
0000
0000
0000
0000
0000
,
0000
0000
0000
3003
0000
1000
0010
0000
,
1000
0000
0000
0000
0002
0003
0000
0000
0220
0330
0000
0000
0002
0003
0000
0000
,
2020
0000
3030
0000
0000
0100
0010
0000
,
0001
0000
0000
0000
0002
0003
0000
0000
2020
3030
0000
0000
0002
0003
0000
0000
,
0220
0330
0000
0000
2002
0000
0000
0000
0000
0000
3003
0000
0110
0000
0000
0000
,
0001
2002
0000
0000
,
0000
0000
0000
0000
3003
1000
0020
0030
,
0200
0300
0202
0000
0000
0000
0000
0000
,
0000
0000
0000
0000
0303
0100
0010
0000
,
0001
0000
0000
0000
0002
0003
0000
0000
0220
0330
0000
0000
0002
0003
0000
0000
,
2020
0000
3030
0000
0000
0100
1000
0000
,
0010
0000
0000
0000
0002
0003
0000
0000
2200
3300
0000
0000
0002
0003
0000
0000
,
2200
3300
0000
0000
0002
0003
0000
0000
0220
0330
0000
0000
0002
0003
0000
0000
,
2020
3030
0000
0000
2002
0000
3003
0000
0100
0000
0010
0000
0001
0000
0000
0000
,
1000
0020
0000
0030
0000
0000
0000
1000
,
0001
0020
0030
0000
1000
0010
1000
0000
,
0100
0020
0000
0030
0000
0000
0000
0010
,
0001
2000
3000
0000
0010
0100
1000
0000
,
0001
0200
0000
0300
1000
0000
0100
0000
,
0220
0000
0330
0000
0202
0000
0303
0000
0000
0000
0002
0000
0000
0003
0000
0000
,
2002
0000
0000
0000
3003
0000
0001
0010
,
0100
0000
1000
0000
0001
0000
0020
0030
0000
0000
1000
0000
0002
0003
0000
0000
,
0010
0200
0000
0000
0300
0000
1000
0001
,
0010
0000
0100
0000
0001
0000
0020
0030
0000
0000
0100
0000
2000
3000
0000
0000
,
1001
2002
0000
3003
0000
0000
0000
0000
;

//---------------dance-single - Copied from Copied f----------------
#NOTES:
     dance-single:
     Copied from Copied f:
     Easy:
     3:
     0.397,0.578,0.071,0.507,0.000,217.000,7.000,50.000,0.000,0.000:
1000
0000
0002
0003
1000
0000
0010
0000
,
0001
1001
0000
0110
,
0000
0000
0200
0300
0010
0000
0100
0000
,
0010
0110
0000
0110
,
0000
1000
1000
0010
,
0001
0000
0000
0000
0010
0000
0000
0000
0002
0003
0000
0000
0200
0000
0000
0000
,
0300
1000
0010
0001
,
1000
0010
0100
0002
,
0003
0000
0010
0000
0000
0001
0000
0000
,
1000
0000
0001
0000
0000
1000
0000
0000
,
0100
0000
0001
0000
0000
0001
0000
0000
,
1000
0000
0010
0000
0000
0001
0000
0000
,
1000
0000
0001
0000
0000
1000
0000
0000
,
0100
0000
0010
0000
0000
0100
0000
0000
,
1000
0000
0001
0000
0000
0001
0000
0000
,
1000
0000
0001
0000
0000
0110
0000
0000
,
1000
0000
0001
0000
0000
1000
0000
0000
,
0100
0000
0010
0000
0000
0100
0000
0000
,
1000
0000
0001
0000
0000
0010
0000
0000
,
1000
0000
0001
0000
0000
0100
0000
0000
,
0100
0000
0001
0000
0000
0010
0000
0000
,
1000
0000
0001
0000
0000
0100
0000
0000
,
1000
0000
0001
0000
0000
1000
0000
0000
,
0100
0000
0010
0000
0000
0110
0000
0000
,
1000
0000
1000
0000
0000
0022
0033
0000
,
0000
0010
0000
0000
0010
0000
0100
0000
,
0000
0000
1000
0000
0000
0002
0003
0000
,
0000
0000
0002
0000
0003
0000
0000
0000
0020
0030
0000
0000
0100
0000
0000
0000
,
1000
0000
0001
0000
0000
1000
0000
0000
,
0100
0000
0001
0000
0000
0100
0000
0000
,
1000
0000
0001
0000
0000
0100
0000
0000
,
1000
0000
0010
0000
0000
0100
0000
0000
,
0010
0000
0001
0000
0000
0100
0000
0000
,
1000
0000
0010
0000
0000
0100
0000
0000
,
1000
0000
0001
0000
0000
0100
0000
0000
,
0010
0000
1000
0000
0000
0001
0000
0000
,
1000
0000
0010
0000
0000
0001
0000
0000
,
1000
0000
0100
0000
0000
0010
0000
0000
,
0100
0000
0001
0000
0000
0010
0000
0000
,
1000
0000
0001
0000
0000
0100
0000
0000
,
1000
0000
0001
0000
0000
0010
0000
0000
,
1000
0000
0100
0000
0000
1000
0000
0000
,
1000
0000
0001
0000
0000
0010
0000
0000
,
0100
0000
1000
0001
1000
0001
1000
0000
,
1000
0002
0000
0000
,
0000
0000
0000
0003
0000
0000
0020
0030
,
0200
0300
0002
0000
0000
0000
0000
0000
,
0000
0000
0000
0003
0000
0000
0010
0000
,
1000
0000
0000
0000
0002
0003
0000
0000
0020
0030
0000
0000
0002
0003
0000
0000
,
0020
0030
0000
0010
,
0001
0000
0000
0000
0002
0003
0000
0000
0020
0030
0000
0000
0002
0003
0000
0000
,
0200
0300
0000
0000
2000
0000
0000
0000
0000
0000
3000
0000
0010
0000
0000
0000
,
0001
0002
0000
0000
,
0000
0000
0000
0000
0003
0000
0020
0030
,
0200
0300
0002
0000
0000
0000
0000
0000
,
0000
0000
0003
0010
,
0001
0000
0000
0000
0002
0003
0000
0000
0200
0300
0000
0000
0002
0003
0000
0000
,
2000
3000
0000
1000
,
0010
0000
0000
0000
0002
0003
0000
0000
2000
3000
0000
0000
0002
0003
0000
0000
,
0200
0300
0000
0000
0002
0003
0000
0000
0020
0030
0000
0000
0002
0003
0000
0000
,
0020
0030
0000
0000
2000
0000
3000
0000
0100
0000
0000
0000
0001
0000
0000
0000
,
1000
0001
0100
0010
,
0001
0100
1000
0001
,
0100
0010
0100
0100
,
0001
1000
0010
1000
,
0001
0010
1000
0100
,
0020
0000
0030
0000
0002
0000
0003
0000
0000
0000
0002
0000
0000
0003
0000
0000
,
0020
0000
0030
0001
,
0100
0000
0000
0000
0001
0000
0020
0030
0000
0000
1000
0000
0002
0003
0000
0000
,
0010
0200
0000
0000
0300
0000
0000
0000
,
0000
0000
0000
0000
0001
0000
0020
0030
0000
0000
0100
0000
2000
3000
0000
0000
,
1000
0002
0000
0003
0000
0000
0000
0000
;
